[Xiuren秀人网]视频 2020.01.07 VN.167 艺轩 收藏

[视频名称] : [XIUREN秀人网] 2020.01.07 VN.167 艺轩.mp4
[出境模特] : 付艺轩
[视频尺寸] : 1920x1080
[视频大小] : 1mp4/447.7M
[视频时长] : 00:06:05
[视频编码] :
Stream #0:0(und): Video: h264 (Main) (avc1 / 0x31637661), yuv420p(tv, bt709/unknown/bt709), 1920x1080 [SAR 1:1 DAR 16:9], 10145 kb/s, 25 fps, 25 tbr, 12800 tbn, 50 tbc (default)
Stream #0:1(und): Audio: aac (LC) (mp4a / 0x6134706D), 44100 Hz, stereo, fltp, 132 kb/s (default)
[下载方式] : 百度网盘
[下载地址] : 点此获取下载地址 (售价:6积分)
下载包内为原版高清视频,绝不含第三方水印!
[视频预览] : [Xiuren秀人网]视频 2020.01.07 VN.167 艺轩

有用 (2)

评论加载中...