[ROSI写真]RS. 视频NO.349 收藏

[视频名称] : 349.mov
[视频尺寸] : 1920x1080
[视频大小] : 1mov/476.7M
[视频时长] : 00:03:19
[视频编码] :
Stream #0:0(eng): Video: h264 (Main) (avc1 / 0x31637661), yuv420p(tv, bt709), 1920x1080, 19692 kb/s, 29.97 fps, 29.97 tbr, 30k tbn, 59.94 tbc (default)
Stream #0:1(eng): Audio: aac (LC) (mp4a / 0x6134706D), 48000 Hz, stereo, fltp, 317 kb/s (default)
[下载方式] : 百度网盘
[下载地址] : 点此获取下载地址 (售价:6积分)
下载包内为原版高清视频,绝不含第三方水印!
[视频预览] : [ROSI写真]RS. 视频NO.349

有用 (0)

评论加载中...