[DKGirl御女郎]2018.12.11 VN.039 艾小青 收藏

[视频名称] : [DKGirl御女郎] 2018.12.11 VN.039 艾小青.mp4
[出境模特] : 艾小青
[视频尺寸] : 1920x1080
[视频大小] : 1mp4/639.9M
[视频时长] : 00:06:54
[视频编码] :
Stream #0:0(und): Video: h264 (Main) (avc1 / 0x31637661), yuv420p(tv, bt709/unknown/bt709), 1920x1080 [SAR 1:1 DAR 16:9], 12800 kb/s, 25 fps, 25 tbr, 12800 tbn, 50 tbc (default)
Stream #0:1(und): Audio: aac (LC) (mp4a / 0x6134706D), 44100 Hz, stereo, fltp, 130 kb/s (default)
[下载方式] : 百度网盘
[下载地址] : 点此获取下载地址 (售价:6积分)
下载包内为原版高清视频,绝不含第三方水印!
[视频预览] : [DKGirl御女郎]2018.12.11 VN.039 艾小青

有用 (7)

评论加载中...