[MyGirl美媛馆]2018.07.06 VN.014 唐琪儿il 收藏

[视频名称] : [MyGirl美媛馆] 2018.07.06 VN.014 唐琪儿il.mp4
[出境模特] : 唐琪儿
[视频尺寸] : 1920x1080
[视频大小] : 1mp4/559.8M
[视频时长] : 00:05:37
[视频编码] :
Stream #0:0(und): Video: h264 (Main) (avc1 / 0x31637661), yuv420p(tv, bt709/unknown/bt709), 1920x1080 [SAR 1:1 DAR 16:9], 13784 kb/s, 29 fps, 29 tbr, 14848 tbn, 58 tbc (default)
Stream #0:1(und): Audio: aac (LC) (mp4a / 0x6134706D), 44100 Hz, stereo, fltp, 129 kb/s (default)
[下载方式] : 百度网盘
[下载地址] : 点此获取下载地址 (售价:6积分)
下载包内为原版高清视频,绝不含第三方水印!
[视频预览] : [MyGirl美媛馆]2018.07.06 VN.014 唐琪儿il

有用 (32)

评论加载中...