[Feilin嗲囡囡]HD视频2020.03.19 NO.152 刀妹 收藏

[视频名称] : [FEILIN嗲囡囡] 2020.03.19 VN.152 刀妹.mp4
[视频尺寸] : 1920x1080
[视频大小] : 1mp4/835.3M
[视频时长] : 00:07:00
[视频编码] :
Stream #0:0(und): Video: h264 (Main) (avc1 / 0x31637661), yuv420p(tv, bt709/unknown/bt709), 1920x1080 [SAR 1:1 DAR 16:9], 16549 kb/s, 25 fps, 25 tbr, 12800 tbn, 50 tbc (default)
Stream #0:1(und): Audio: aac (LC) (mp4a / 0x6134706D), 44100 Hz, stereo, fltp, 129 kb/s (default)
[下载方式] : 百度网盘
[下载地址] : 点此获取下载地址 (售价:6积分)
下载包内为原版高清视频,绝不含第三方水印!
[视频预览] : [Feilin嗲囡囡]HD视频2020.03.19 NO.152 刀妹

有用 (1)

评论加载中...