[IMiss爱蜜社]2018.06.29 VN.029 黄楽然 收藏

[视频名称] : [IMiss爱蜜社] 2018.06.29 VN.029 黄楽然.mp4
[出境模特] : 黄楽然
[视频尺寸] : 1920x1080
[视频大小] : 1mp4/815.6M
[视频时长] : 00:11:28
[视频编码] :
Stream #0:0(und): Video: h264 (Main) (avc1 / 0x31637661), yuv420p(tv, bt709/unknown/bt709), 1920x1080 [SAR 1:1 DAR 16:9], 9798 kb/s, 30 fps, 30 tbr, 15360 tbn, 60 tbc (default)
Stream #0:1(und): Audio: aac (LC) (mp4a / 0x6134706D), 44100 Hz, stereo, fltp, 130 kb/s (default)
[下载方式] : 百度网盘
[下载地址] : 点此获取下载地址 (售价:6积分)
下载包内为原版高清视频,绝不含第三方水印!
[视频预览] : [IMiss爱蜜社]2018.06.29 VN.029 黄楽然

有用 (1)

评论加载中...