[YouWu尤物馆]2019.01.08 VN.019 温心怡 收藏

[视频名称] : [YouWu尤物馆] 2019.01.08 VN.019 温心怡.mp4
[出境模特] : 温心怡
[视频尺寸] : 1280x720
[视频大小] : 1mp4/92.9M
[视频时长] : 00:05:12
[视频编码] :
Stream #0:0(eng): Video: h264 (High) (avc1 / 0x31637661), yuv420p, 1280x720, 2359 kb/s, 25 fps, 25 tbr, 12800 tbn, 50 tbc (default)
Stream #0:1(eng): Audio: aac (LC) (mp4a / 0x6134706D), 44100 Hz, stereo, fltp, 132 kb/s (default)
[下载方式] : 百度网盘
[下载地址] : 点此获取下载地址 (售价:6积分)
下载包内为原版高清视频,绝不含第三方水印!
[在线观看] : 第1段
[视频预览] : [YouWu尤物馆]2019.01.08 VN.019 温心怡

有用 (0)

评论加载中...