物恋传媒 NO.396 岚岚-雨中花 收藏

[套图名称] : 物恋传媒 NO.396 岚岚-雨中花
[套图尺寸] : 6720x4480
[套图大小] : 200P+1V/5.22G
[下载方式] : 百度网盘
[下载地址] : 点此获取下载地址 (VIP会员免积分下载)
下载包内为原版高清套图和视频,绝不含第三方水印!
[在线观看] : 第1段
[套图预览] : 物恋传媒 NO.396 岚岚-雨中花 第1张
[视频名称] : 原版-4K.mp4
[视频尺寸] : 3840x2160
[视频大小] : 1mp4/2.73G
[视频时长] : 00:13:17
[视频编码] :
Stream #0:1(und): Video: h264 (High) (avc1 / 0x31637661), yuv420p(tv, bt709, progressive), 3840x2160 [SAR 1:1 DAR 16:9], 29298 kb/s, 25 fps, 25 tbr, 25 tbn, 50 tbc (default)
Stream #0:0(zho): Audio: aac (LC) (mp4a / 0x6134706D), 48000 Hz, stereo, fltp, 130 kb/s (default)
[视频预览] : 物恋传媒 NO.396 岚岚-雨中花 第1张

有用 (0)

评论加载中...